BDshare

 找回密码
 立即注册
搜索
热搜: 蓝光 原盘 3D 4K
查看: 521|回复: 38

[DIY中字原盘] [画皮之阴阳法王][胡金铨作品 法版原盘 国粤双语 DIY国配简繁字幕 菜单修改][Painted Skin 1993 FRA Blu-ray 1080p AVC DTS-HD MA 2.0-DIY@Hero][35.07GB]

  [复制链接]

2万

主题

2万

帖子

62万

积分

管理员

Rank: 9Rank: 9Rank: 9

积分
622648
发表于 2024-5-17 18:17:11 | 显示全部楼层 |阅读模式


◎译  名 画皮之阴阳法王 / Painted Skin
◎片  名 畫皮之陰陽法王
◎年  代 1992
◎产  地 中国香港 / 中国大陆
◎类  别 动作 / 恐怖 / 奇幻 / 古装
◎语  言 粤语
◎上映日期 1992(东京电影节) / 1992-07-25(中国台湾) / 1993-09-18(中国香港)
◎IMDb评分  5.6/10 from 283 users
◎IMDb链接  https://www.imdb.com/title/tt0104455/
◎豆瓣评分 6.6/10 from 14,784 users
◎豆瓣链接 https://movie.douban.com/subject/1307026/
◎片  长 95分钟
◎导  演 胡金铨 / King Hu
◎演  员 郑少秋 / Adam Cheng
      王祖贤 / Joey Wong
      午马 / Wu Ma
      洪金宝 / Sammo Hung Kam-Bo
      林正英 / Ching-Ying Lam
      刘洵 / Shun Lau
      李胜源 / Sheng-yuan Li
      臧金生 / Jinsheng Zang
      贾琴芳 / Qinfang Jia (饰 陈氏)
◎编  剧 阿城 / A Cheng
      胡金铨 / King Hu
      蒲松龄 / Songling Pu
      林榆 / Lin Yu
◎制  片  人 周剑光 / Chien-Kuang Chow
      钟发 / Fat Chung
◎音  乐 徐嘉良 / Jialiang Xu
      黄霑 / James Wong
      吴大江 / Ta Chiang Wu
      陈松伶 / Adia Chan
      莫凡 / Fan Mo
      林榆 / Lin Yu
◎摄  影 潘德业 / Stephen Poon Tak-Yip
◎剪  辑 萧楠 / Nan Hsiao
◎美  术 梁华生 / James Leung
◎副  导  演 刘嘉蔚 / Catherine Lau
◎动作特技 张荣祥 / Cheung Wing-Cheung
      徐忠信 / Alan Chui Chung San
◎其  它 钟发 / Fat Chung
      黄霑 / James Wong
      吴明才 / Ming-tsai Wu
      叶国治 / Kwok-Chi Yip

◎简  介 

  落第书生王生(郑少秋饰)娶妻多年,一无所出。一日自城中赶路回家时,偶遇一明艳照人之少妇尤枫(王祖贤饰)。枫自称身世可怜,被逼嫁入某大户人当妾待,正室所虐,故冒死出走,王仗义相助,愿意让枫暂居于其书齌,当晚王欲与枫行鱼水之欢,天忽亮,枫推说身体不适,拒绝了王的要求。翌日, 王往城中购胭脂水粉,欲赠枫以讨其欢心,遇玉清道人(刘洵饰),后者指王邪气缠身,王置之不理。王返家,向妻子陈氏表明心意娶枫为妾,陈氏趁枫宽衣沐浴时,竟自窗外窥得枫取下脸皮,点画胭脂之骇人情景,吓得晕死过去,王连狂奔玉清道观,求道人除魔,玉清把一尘拂予王,嘱王把它挂在寝室门外,再作打算不料枫却潜入室内,向王申诉前生之辛酸遭遇......


  1. DISC INFO:

  2. Disc Title:     PAINTED SKIN
  3. Disc Label:     Painted Skin 1992
  4. Disc Size:      37,651,646,922 bytes
  5. Protection:     AACS
  6. Extras:         50Hz Content
  7. BDInfo:         0.7.5.5

  8. PLAYLIST REPORT:

  9. Name:                   00000.MPLS
  10. Length:                 1:34:00.750 (h:m:s.ms)
  11. Size:                   25,052,169,984 bytes
  12. Total Bitrate:          35.53 Mbps

  13. VIDEO:

  14. Codec                   Bitrate             Description   
  15. -----                   -------             -----------   
  16. MPEG-4 AVC Video        29897 kbps          1080p / 24 fps / 16:9 / High Profile 4.1

  17. AUDIO:

  18. Codec                           Language        Bitrate         Description   
  19. -----                           --------        -------         -----------   
  20. DTS-HD Master Audio             Chinese         1580 kbps       2.0 / 48 kHz /  1580 kbps / 16-bit (DTS Core: 2.0 / 48 kHz /  1509 kbps / 16-bit)(粤语)
  21. DTS-HD Master Audio             Chinese         1970 kbps       2.0 / 48 kHz /  1970 kbps / 24-bit (DTS Core: 2.0 / 48 kHz /  1509 kbps / 24-bit)(国语)

  22. SUBTITLES:

  23. Codec                           Language        Bitrate         Description   
  24. -----                           --------        -------         -----------   
  25. Presentation Graphics           Chinese         20.891 kbps                   (繁体)  
  26. Presentation Graphics           Chinese         22.249 kbps                   (国语简体)
  27. Presentation Graphics           French          24.563 kbps                   (原盘法文)

  28. FILES:

  29. Name            Time In         Length          Size            Total Bitrate  
  30. ----            -------         ------          ----            -------------  
  31. 00013.M2TS      0:00:00.000     0:00:20.000     1,122,048       448            
  32. 00011.M2TS      0:00:20.000     1:33:39.750     25,051,023,360  35,661         
  33. 00010.M2TS      1:33:59.750     0:00:01.000     24,576          197                     
复制代码










购买主题 已有 9 人购买  本主题需向作者支付 30 影票 才能浏览
回复

使用道具 举报

229

主题

1747

帖子

2202

积分

金狮奖影帝

Rank: 9Rank: 9Rank: 9

积分
2202
发表于 2024-5-17 18:22:34 | 显示全部楼层
感谢楼主分享
回复

使用道具 举报

1

主题

644

帖子

674

积分

主演

Rank: 4

积分
674
发表于 2024-5-17 18:24:52 | 显示全部楼层
谢谢分享
回复

使用道具 举报

2

主题

2029

帖子

1464

积分

金狮奖影帝

Rank: 9Rank: 9Rank: 9

积分
1464
发表于 2024-5-17 18:49:07 | 显示全部楼层
强烈支持楼主ing……
回复

使用道具 举报

0

主题

98

帖子

160

积分

跑龙套

Rank: 2

积分
160
发表于 2024-5-17 19:17:03 | 显示全部楼层

感谢楼主分享
回复

使用道具 举报

0

主题

1373

帖子

809

积分

金棕榈奖影帝

Rank: 9Rank: 9Rank: 9

积分
809
发表于 2024-5-17 19:41:13 | 显示全部楼层
强烈支持楼主ing……
回复

使用道具 举报

17

主题

1016

帖子

1066

积分

金鸡奖影帝

Rank: 9Rank: 9Rank: 9

积分
1066
发表于 2024-5-17 19:41:37 | 显示全部楼层
谢谢分享
回复

使用道具 举报

13

主题

1197

帖子

528

积分

金鸡奖影帝

Rank: 9Rank: 9Rank: 9

积分
528
发表于 2024-5-17 19:44:52 | 显示全部楼层
强烈支持楼主ing……
回复

使用道具 举报

6

主题

4168

帖子

1217

积分

金狮奖影帝

Rank: 9Rank: 9Rank: 9

积分
1217
发表于 2024-5-17 20:04:41 | 显示全部楼层
看到这帖子真是高兴!
回复

使用道具 举报

49

主题

5424

帖子

1837

积分

金鸡奖影帝

Rank: 9Rank: 9Rank: 9

积分
1837
发表于 2024-5-17 20:13:58 | 显示全部楼层
感谢分享
回复

使用道具 举报

0

主题

1342

帖子

1416

积分

金狮奖影帝

Rank: 9Rank: 9Rank: 9

积分
1416
发表于 2024-5-17 20:18:37 | 显示全部楼层
谢谢分享。。。
回复

使用道具 举报

16

主题

4396

帖子

1650

积分

金鸡奖影帝

Rank: 9Rank: 9Rank: 9

积分
1650
发表于 2024-5-17 21:03:56 | 显示全部楼层
感谢分享
回复

使用道具 举报

0

主题

181

帖子

429

积分

配角

Rank: 3Rank: 3

积分
429
发表于 2024-5-17 22:29:17 | 显示全部楼层
爱死你了大神,胡金铨的电影终于搜集全了!
回复

使用道具 举报

20

主题

1798

帖子

938

积分

金鸡奖影帝

Rank: 9Rank: 9Rank: 9

积分
938
发表于 2024-5-17 22:50:59 | 显示全部楼层

感谢楼主分享
回复

使用道具 举报

35

主题

1996

帖子

1423

积分

金鸡奖影帝

Rank: 9Rank: 9Rank: 9

积分
1423
发表于 2024-5-17 23:24:49 | 显示全部楼层
阿萨达十大
回复

使用道具 举报

0

主题

57

帖子

53

积分

跑龙套

Rank: 2

积分
53
发表于 2024-5-17 23:32:35 | 显示全部楼层
感谢
回复

使用道具 举报

0

主题

6685

帖子

1402

积分

金鸡奖影帝

Rank: 9Rank: 9Rank: 9

积分
1402
发表于 2024-5-17 23:34:43 | 显示全部楼层
感谢
回复

使用道具 举报

发表于 2024-5-17 23:35:06 | 显示全部楼层
强烈支持楼主ing……
回复

使用道具 举报

1

主题

211

帖子

628

积分

金棕榈奖影帝

Rank: 9Rank: 9Rank: 9

积分
628
发表于 2024-5-17 23:43:58 | 显示全部楼层
感谢楼主分享!
回复

使用道具 举报

0

主题

176

帖子

923

积分

金棕榈奖影帝

Rank: 9Rank: 9Rank: 9

积分
923
发表于 2024-5-18 06:38:11 | 显示全部楼层
太太太喜欢这部电影了
回复

使用道具 举报

0

主题

4907

帖子

1303

积分

金鸡奖影帝

Rank: 9Rank: 9Rank: 9

积分
1303
发表于 2024-5-18 07:47:10 | 显示全部楼层
谢谢分享
回复

使用道具 举报

7

主题

151

帖子

325

积分

金鸡奖影帝

Rank: 9Rank: 9Rank: 9

积分
325
发表于 2024-5-18 09:38:20 | 显示全部楼层
强烈支持楼主ing……
回复

使用道具 举报

2

主题

1万

帖子

2625

积分

金狮奖影帝

Rank: 9Rank: 9Rank: 9

积分
2625
发表于 2024-5-18 09:47:52 | 显示全部楼层
强烈支持楼主ing……
回复

使用道具 举报

0

主题

78

帖子

741

积分

主演

Rank: 4

积分
741
发表于 2024-5-18 16:15:38 | 显示全部楼层
感谢楼主分享
回复

使用道具 举报

0

主题

19

帖子

84

积分

跑龙套

Rank: 2

积分
84
发表于 2024-5-18 16:20:32 | 显示全部楼层
经典的港片
回复

使用道具 举报

17

主题

6658

帖子

1083

积分

金鸡奖影帝

Rank: 9Rank: 9Rank: 9

积分
1083
发表于 2024-5-18 17:10:29 | 显示全部楼层
强烈支持楼主ing……
回复

使用道具 举报

0

主题

684

帖子

477

积分

金鸡奖影帝

Rank: 9Rank: 9Rank: 9

积分
477
发表于 2024-5-18 17:43:19 | 显示全部楼层
顶一下,感谢楼主分享
回复

使用道具 举报

3

主题

1378

帖子

1188

积分

金鸡奖影帝

Rank: 9Rank: 9Rank: 9

积分
1188
发表于 2024-5-18 19:27:26 | 显示全部楼层
看到这帖子真是高兴!
回复

使用道具 举报

49

主题

1983

帖子

1272

积分

明星

Rank: 6Rank: 6

积分
1272
发表于 2024-5-18 21:26:40 | 显示全部楼层
感谢分享

既然选择了远方,便只顾风雨兼程!
回复

使用道具 举报

0

主题

5

帖子

278

积分

配角

Rank: 3Rank: 3

积分
278
发表于 2024-5-19 00:26:43 | 显示全部楼层
感谢分享,清楚多了
回复

使用道具 举报

您需要登录后才可以回帖 登录 | 立即注册

本版积分规则

QQ|Archiver|手机版|小黑屋|BDshare

GMT+8, 2024-6-21 16:08 , Processed in 0.286635 second(s), 22 queries .

Powered by Discuz! X3.4

Copyright © 2001-2020, Tencent Cloud.

快速回复 返回顶部 返回列表