BDshare

 找回密码
 立即注册
搜索
热搜: 蓝光 原盘 3D 4K
查看: 306|回复: 32

[DIY中字原盘] [黑侠][英尤里卡版原盘 原生粤语 DIY国语音轨 国粤配简繁字幕 菜单汉化][Black Mask 1996 GBR BluRay 1080p AVC LPCM 2.0-FFansDIY@至尊宝][91.43GB]

  [复制链接]

2万

主题

2万

帖子

62万

积分

管理员

Rank: 9Rank: 9Rank: 9

积分
622648
发表于 2024-5-19 18:04:10 | 显示全部楼层 |阅读模式
制作说明
原盘@无后缀,国粤语对应字幕@字幕库,国语取自港版蓝光@OurDisc
素材全部由本人二次调整匹配,对素材提供者以上一并感谢
已对菜单全部汉化处理,具体信息请查看详情INFO
仅在PD22和VLC测试,转载和使用素材请务必注明具体来源,谢谢



◎译  名 黑侠 / Black Mask
◎片  名 黑俠
◎年  代 1996
◎产  地 中国香港
◎类  别 喜剧 / 动作 / 科幻 / 惊悚 / 犯罪 / 冒险
◎语  言 粤语
◎上映日期 1996-11-09
◎IMDb评分  6.0/10 from 12,299 users
◎IMDb链接  https://www.imdb.com/title/tt0115693/
◎豆瓣评分 6.9/10 from 40,280 users
◎豆瓣链接 https://movie.douban.com/subject/1295746/
◎片  长 96 分钟
◎导  演 李仁港 / Daniel Lee
◎演  员 李连杰 / Jet Li
      刘青云 / Sean Lau
      莫文蔚 / Karen Mok
      叶芳华 / Françoise Yip
      黄秋生 / Anthony Wong Chau-Sang
      陈豪 / Moses Chan
      熊欣欣 / Xinxin Xiong
      方平 / Henry Fong
      林迪安 / Dion Lam
      梁志安 / Chi-On Leung
      陈少华 / Siu-Wah Chan
      司徒慧焯 / Roy Szeto
      林富伟 / Fu-wai Lam
      刘国昌 / Lawrence Ah Mon
      骆达华 / Tat-Wah Lok
      钟景辉 / King-fai Chung
      龙刚 / Kong Lung
      李剑荣 / Kim-Wing Lee
◎编  剧 徐克 / Hark Tsui
      许鞍华 / Ann Hui
      马伟豪 / Joe Ma
      许安 / Koan Hui
◎制  片  人 徐克 / Hark Tsui
◎音  乐 Ben Vaughn Ben Vaughn
◎摄  影 张东亮 / Tony Cheung
◎剪  辑 张嘉辉 / Ka-fai Cheung
◎美  术 马磐超 / Eddie Ma
      雷楚雄 / Bill Lui
◎服  装 关美宝 / Mabel Kwan
      冯君孟 / William Fung
◎副  导  演 郑保瑞 / Pou-Soi Cheang
      黄庆勋 / Danny Wong
      许鞍华 / Ann Hui
      许安 / Koan Hui
◎视觉特效 马文现 / Stephen Ma
◎动作特技 林迪安 / Dion Lam
      袁和平 / Woo-ping Yuen
      孙梦飞 / Mengfei Sun
      陈少华 / Siu-Wah Chan
      谷轩昭 / Huan-Chiu Ku

◎简  介 

  徐夕(李连杰)本是神秘杀手组织701部队里的一名冷血杀手,因为不想再做杀人工具,他逃离了该组织来到香港化身为一名普通的图书馆理员,因此结识警察石SIR并与之成为好友,不想701部队为追杀黑帮头目突然现身香港,一时石SIR及警方均束手无策,见好友处于危难中,徐夕挺身而出化 为黑侠。
  黑侠让701部队的首脑熊菊(龙刚)大为震怒,遂派徐夕旧情人若兰规劝黑侠归顺,被徐夕断然拒绝,结果令图书馆除Tracy(莫文蔚)之外的诸同事皆丧命。为保护Tracy,徐夕再做黑侠采用强硬态度要带她走,遭不知黑侠就是其意中人徐夕的Tracy的拒绝。后在与熊菊一干人等对抗的过程中,徐夕渐从Tracy身上寻到自己想要的情感。

◎获奖情况 

  第16届香港电影金像奖 (1997)
  最佳美术指导(提名) 马磐超,雷楚雄
  最佳服装造型设计(提名) 冯君孟,关美宝
  最佳动作设计(提名) 袁和平


  1. 香港版
  2. DISC INFO:

  3. Disc title:     BLACK MASK
  4. Disc Label:     Black Mask-Disc1
  5. Disc Size:      49,297,875,927 bytes
  6. Protection:     AACS
  7. BDInfo:         0.7.5.5

  8. PLAYLIST REPORT:

  9. Name:                   00002.MPLS
  10. Length:                 1:39:58.242 (h:m:s.ms)
  11. Size:                   23,808,968,256 bytes
  12. Total Bitrate:          31.75 Mbps

  13. VIDEO:

  14. Codec                   Bitrate             Description   
  15. -----                   -------             -----------   
  16. MPEG-4 AVC Video        22999 kbps          1080p / 23.976 fps / 16:9 / High Profile 4.1

  17. AUDIO:

  18. Codec                           Language        Bitrate         Description   
  19. -----                           --------        -------         -----------   
  20. DTS-HD Master Audio             Chinese         3587 kbps       5.1 / 48 kHz /  3587 kbps / 24-bit (DTS Core: 5.1 / 48 kHz /  1509 kbps / 24-bit)
  21. LPCM Audio                      Chinese         2304 kbps       2.0 / 48 kHz /  2304 kbps / 24-bit
  22. Dolby Digital Audio             Chinese         640 kbps        5.1 / 48 kHz /   640 kbps / DN -31dB
  23. Dolby Digital Audio             English         320 kbps        2.0 / 48 kHz /   320 kbps / DN -31dB

  24. SUBtitleS:

  25. Codec                           Language        Bitrate         Description   
  26. -----                           --------        -------         -----------   
  27. Presentation Graphics           Chinese         19.936 kbps                    
  28. Presentation Graphics           Chinese         20.117 kbps                    
  29. Presentation Graphics           Chinese         20.020 kbps                    
  30. Presentation Graphics           Chinese         20.323 kbps                    
  31. Presentation Graphics           English         34.309 kbps                    

  32. FILES:

  33. Name            Time In         Length          Size            Total Bitrate  
  34. ----            -------         ------          ----            -------------  
  35. 00006.M2TS      0:00:00.000     1:39:58.242     23,808,968,256  31,754         
复制代码

  1. 国际版
  2. DISC INFO:

  3. Disc title:     BLACK MASK
  4. Disc Label:     Black Mask-Disc1
  5. Disc Size:      49,297,875,927 bytes
  6. Protection:     AACS
  7. BDInfo:         0.7.5.5

  8. PLAYLIST REPORT:

  9. Name:                   00004.MPLS
  10. Length:                 1:27:14.979 (h:m:s.ms)
  11. Size:                   19,220,604,480 bytes
  12. Total Bitrate:          29.37 Mbps

  13. VIDEO:

  14. Codec                   Bitrate             Description   
  15. -----                   -------             -----------   
  16. MPEG-4 AVC Video        23000 kbps          1080p / 23.976 fps / 16:9 / High Profile 4.1

  17. AUDIO:

  18. Codec                           Language        Bitrate         Description   
  19. -----                           --------        -------         -----------   
  20. LPCM Audio                      English         2304 kbps       2.0 / 48 kHz /  2304 kbps / 24-bit
  21. LPCM Audio                      English         2304 kbps       2.0 / 48 kHz /  2304 kbps / 24-bit
  22. Dolby Digital Audio             English         320 kbps        2.0 / 48 kHz /   320 kbps / DN -31dB

  23. FILES:

  24. Name            Time In         Length          Size            Total Bitrate  
  25. ----            -------         ------          ----            -------------  
  26. 00007.M2TS      0:00:00.000     1:27:14.979     19,220,604,480  29,372         
复制代码

  1. 台湾版
  2. DISC INFO:

  3. Disc title:     BLACK MASK DISC 2
  4. Disc Label:     Black Mask-Disc2
  5. Disc Size:      48,871,636,374 bytes
  6. Protection:     AACS
  7. BDInfo:         0.7.5.5

  8. PLAYLIST REPORT:

  9. Name:                   00002.MPLS
  10. Length:                 1:40:57.134 (h:m:s.ms)
  11. Size:                   25,443,284,544 bytes
  12. Total Bitrate:          33.60 Mbps

  13. VIDEO:

  14. Codec                   Bitrate             Description   
  15. -----                   -------             -----------   
  16. MPEG-4 AVC Video        25965 kbps          1080p / 23.976 fps / 16:9 / High Profile 4.1

  17. AUDIO:

  18. Codec                           Language        Bitrate         Description   
  19. -----                           --------        -------         -----------   
  20. LPCM Audio                      Chinese         2304 kbps       2.0 / 48 kHz /  2304 kbps / 24-bit  国语2.0
  21. Dolby Digital Audio             Chinese         640 kbps        5.1 / 48 kHz /   640 kbps / DN -31dB   粤语5.1
  22. LPCM Audio                      Chinese         2304 kbps       2.0 / 48 kHz /  2304 kbps / 24-bit  国语2.0
  23. Dolby Digital Audio             Chinese         640 kbps        5.1 / 48 kHz /   640 kbps / DN -31dB  国语5.1

  24. SUBtitleS:

  25. Codec                           Language        Bitrate         Description   
  26. -----                           --------        -------         -----------   
  27. Presentation Graphics           Chinese         19.839 kbps            国语简体         
  28. Presentation Graphics           Chinese         20.140 kbps            国语繁体         
  29. Presentation Graphics           English         31.733 kbps                    

  30. FILES:

  31. Name            Time In         Length          Size            Total Bitrate  
  32. ----            -------         ------          ----            -------------  
  33. 00006.M2TS      0:00:00.000     1:40:57.134     25,443,284,544  33,604      
复制代码

  1. 混剪版
  2. DISC INFO:

  3. Disc title:     BLACK MASK DISC 2
  4. Disc Label:     Black Mask-Disc2
  5. Disc Size:      48,871,636,374 bytes
  6. Protection:     AACS
  7. BDInfo:         0.7.5.5

  8. PLAYLIST REPORT:

  9. Name:                   00004.MPLS
  10. Length:                 1:42:18.590 (h:m:s.ms)
  11. Size:                   23,382,347,328 bytes
  12. Total Bitrate:          30.47 Mbps

  13. VIDEO:

  14. Codec                   Bitrate             Description   
  15. -----                   -------             -----------   
  16. MPEG-4 AVC Video        25965 kbps          1080p / 23.976 fps / 16:9 / High Profile 4.1

  17. AUDIO:

  18. Codec                           Language        Bitrate         Description   
  19. -----                           --------        -------         -----------   
  20. LPCM Audio                      Chinese         2304 kbps       2.0 / 48 kHz /  2304 kbps / 24-bit  粤语2.0
  21. Dolby Digital Audio             Chinese         640 kbps        5.1 / 48 kHz /   640 kbps / DN -31dB  国语5.1

  22. SUBtitleS:

  23. Codec                           Language        Bitrate         Description   
  24. -----                           --------        -------         -----------   
  25. Presentation Graphics           Chinese         19.460 kbps            粤式简体         
  26. Presentation Graphics           Chinese         19.640 kbps            粤式繁体         
  27. Presentation Graphics           Chinese         19.555 kbps            国语简体         
  28. Presentation Graphics           Chinese         19.852 kbps            国语繁体         
  29. Presentation Graphics           English         33.536 kbps                    

  30. FILES:

  31. Name            Time In         Length          Size            Total Bitrate  
  32. ----            -------         ------          ----            -------------  
  33. 00007.M2TS      0:00:00.000     1:42:18.590     23,382,347,328  30,472
复制代码









购买主题 已有 4 人购买  本主题需向作者支付 60 影票 才能浏览
回复

使用道具 举报

0

主题

1373

帖子

809

积分

金棕榈奖影帝

Rank: 9Rank: 9Rank: 9

积分
809
发表于 2024-5-19 18:22:45 | 显示全部楼层
强烈支持楼主ing……
回复

使用道具 举报

13

主题

1196

帖子

527

积分

金鸡奖影帝

Rank: 9Rank: 9Rank: 9

积分
527
发表于 2024-5-19 18:24:36 | 显示全部楼层
看到这帖子真是高兴!
回复

使用道具 举报

发表于 2024-5-19 18:37:04 | 显示全部楼层
强烈支持楼主ing……
回复

使用道具 举报

20

主题

1798

帖子

938

积分

金鸡奖影帝

Rank: 9Rank: 9Rank: 9

积分
938
发表于 2024-5-19 19:34:40 | 显示全部楼层
强烈支持楼主ing……
回复

使用道具 举报

2

主题

2029

帖子

1464

积分

金狮奖影帝

Rank: 9Rank: 9Rank: 9

积分
1464
发表于 2024-5-19 19:39:28 | 显示全部楼层
强烈支持楼主ing……
回复

使用道具 举报

1

主题

6269

帖子

1651

积分

金棕榈奖影帝

Rank: 9Rank: 9Rank: 9

积分
1651
发表于 2024-5-19 19:55:38 | 显示全部楼层
楼主加油,我们都看好你哦。
回复

使用道具 举报

12

主题

721

帖子

1126

积分

明星

Rank: 6Rank: 6

积分
1126
发表于 2024-5-19 20:02:34 | 显示全部楼层
看到这帖子真是高兴!
回复

使用道具 举报

17

主题

6649

帖子

1082

积分

金鸡奖影帝

Rank: 9Rank: 9Rank: 9

积分
1082
发表于 2024-5-19 20:02:36 | 显示全部楼层
强烈支持楼主ing……
回复

使用道具 举报

16

主题

4396

帖子

1650

积分

金鸡奖影帝

Rank: 9Rank: 9Rank: 9

积分
1650
发表于 2024-5-19 20:24:50 | 显示全部楼层
感谢分享
回复

使用道具 举报

0

主题

1342

帖子

1416

积分

金狮奖影帝

Rank: 9Rank: 9Rank: 9

积分
1416
发表于 2024-5-19 20:38:33 | 显示全部楼层
谢谢分享。。。
回复

使用道具 举报

0

主题

6685

帖子

1402

积分

金鸡奖影帝

Rank: 9Rank: 9Rank: 9

积分
1402
发表于 2024-5-19 20:38:52 | 显示全部楼层
感谢
回复

使用道具 举报

1

主题

644

帖子

674

积分

主演

Rank: 4

积分
674
发表于 2024-5-19 21:54:20 | 显示全部楼层
谢谢分享
回复

使用道具 举报

6

主题

4168

帖子

1217

积分

金狮奖影帝

Rank: 9Rank: 9Rank: 9

积分
1217
发表于 2024-5-19 22:18:13 | 显示全部楼层
强烈支持楼主ing……
回复

使用道具 举报

8

主题

1120

帖子

1268

积分

金狮奖影帝

Rank: 9Rank: 9Rank: 9

积分
1268
发表于 2024-5-19 22:49:03 | 显示全部楼层
感谢
回复

使用道具 举报

0

主题

22

帖子

229

积分

配角

Rank: 3Rank: 3

积分
229
发表于 2024-5-19 23:12:20 | 显示全部楼层
很不错的资源。
回复

使用道具 举报

5

主题

6358

帖子

2019

积分

金棕榈奖影帝

Rank: 9Rank: 9Rank: 9

积分
2019
发表于 2024-5-20 00:15:12 | 显示全部楼层
真是被感动的痛哭流涕……
回复

使用道具 举报

1

主题

2162

帖子

1146

积分

金棕榈奖影帝

Rank: 9Rank: 9Rank: 9

积分
1146
发表于 2024-5-20 04:36:47 | 显示全部楼层
激动人心,无法言表!
回复

使用道具 举报

3

主题

1378

帖子

1188

积分

金鸡奖影帝

Rank: 9Rank: 9Rank: 9

积分
1188
发表于 2024-5-20 07:56:35 | 显示全部楼层
看到这帖子真是高兴!
回复

使用道具 举报

0

主题

684

帖子

477

积分

金鸡奖影帝

Rank: 9Rank: 9Rank: 9

积分
477
发表于 2024-5-20 08:07:19 | 显示全部楼层
顶一下,感谢楼主分享
回复

使用道具 举报

2

主题

1万

帖子

2625

积分

金狮奖影帝

Rank: 9Rank: 9Rank: 9

积分
2625
发表于 2024-5-20 13:08:02 | 显示全部楼层
强烈支持楼主ing……
回复

使用道具 举报

0

主题

4907

帖子

1303

积分

金鸡奖影帝

Rank: 9Rank: 9Rank: 9

积分
1303
发表于 2024-5-20 13:57:39 | 显示全部楼层
谢谢分享
回复

使用道具 举报

1

主题

2832

帖子

1204

积分

明星

Rank: 6Rank: 6

积分
1204
发表于 2024-5-20 16:52:19 | 显示全部楼层
真是难得给力的帖子啊。
回复

使用道具 举报

49

主题

5424

帖子

1837

积分

金鸡奖影帝

Rank: 9Rank: 9Rank: 9

积分
1837
发表于 2024-5-20 18:13:24 | 显示全部楼层
感谢分享
回复

使用道具 举报

0

主题

6757

帖子

1124

积分

金狮奖影帝

Rank: 9Rank: 9Rank: 9

积分
1124
发表于 2024-5-20 20:35:06 | 显示全部楼层
强烈支持楼主ing……
回复

使用道具 举报

0

主题

22

帖子

217

积分

金鸡奖影帝

Rank: 9Rank: 9Rank: 9

积分
217
发表于 2024-5-20 22:04:37 | 显示全部楼层
强烈支持楼主ing……

回复

使用道具 举报

22

主题

432

帖子

796

积分

主演

Rank: 4

积分
796
发表于 2024-5-21 03:31:24 | 显示全部楼层
黑侠
回复

使用道具 举报

0

主题

20

帖子

647

积分

金棕榈奖影帝

Rank: 9Rank: 9Rank: 9

积分
647
发表于 2024-5-21 08:40:53 | 显示全部楼层
这个强啊,4版啊,怪不得这么大
回复

使用道具 举报

21

主题

106

帖子

359

积分

金狮奖影帝

Rank: 9Rank: 9Rank: 9

积分
359
发表于 2024-5-22 18:21:19 | 显示全部楼层
强烈支持楼主ing……
回复

使用道具 举报

0

主题

2万

帖子

2953

积分

金狮奖影帝

Rank: 9Rank: 9Rank: 9

积分
2953
发表于 2024-5-22 19:33:40 | 显示全部楼层
强烈支持楼主ing……
回复

使用道具 举报

您需要登录后才可以回帖 登录 | 立即注册

本版积分规则

QQ|Archiver|手机版|小黑屋|BDshare

GMT+8, 2024-6-21 15:25 , Processed in 0.191759 second(s), 22 queries .

Powered by Discuz! X3.4

Copyright © 2001-2020, Tencent Cloud.

快速回复 返回顶部 返回列表